fichier MKV

Voir le sujet précédent Voir le sujet suivant Aller en bas

fichier MKV

Message  yanolo le Mer 3 Fév 2010 - 19:11

salut

voila mon problème mon lgms400h ne peut pas lire les fichier MKV
exemple de fichier que je peut pas lire su qq a une explication merci de me donner la marche asuivre afin de lire mes fichier MKV ou alors me dire comment les
ré encodé dans un autre format HD

merci d'avance

General
Complete name : E:\videos\hd\Eagle Eye.mkv
Format : Matroska
File size : 4.37 GiB
Duration : 1h 57mn
Overall bit rate : 5 324 Kbps
Encoded date : UTC 2008-12-11 12:15:21
Writing application : mkvmerge v2.0.2 ('You're My Flame') built on Feb 21 2007 23:40:55
Writing library : libebml v0.7.7 + libmatroska v0.8.1

Video
ID : 1
Format : AVC
Format/Info : Advanced Video Codec
Format profile : High@L4.1
Format settings, CABAC : Yes
Format settings, ReFrames : 5 frames
Muxing mode : Container profile=Unknown@4.1
Codec ID : V_MPEG4/ISO/AVC
Duration : 1h 57mn
Bit rate : 4 578 Kbps
Nominal bit rate : 4 681 Kbps
Width : 1 280 pixels
Height : 528 pixels
Display aspect ratio : 2.40:1
Frame rate : 23.976 fps
Resolution : 24 bits
Colorimetry : 4:2:0
Scan type : Progressive
Bits/(Pixel*Frame) : 0.283
Stream size : 3.76 GiB (86%)
Writing library : x264 core 65 r1016 dbc5ef0
Encoding settings : cabac=1 / ref=5 / deblock=1:0:0 / analyse=0x3:0x133 / me=umh / subme=7 / psy_rd=1.0:0.0 / mixed_ref=1 / me_range=16 / chroma_me=1 / trellis=1 / 8x8dct=1 / cqm=0 / deadzone=21,11 / chroma_qp_offset=-2 / threads=6 / nr=0 / decimate=1 / mbaff=0 / bframes=3 / b_pyramid=1 / b_adapt=1 / b_bias=0 / direct=1 / wpredb=1 / keyint=250 / keyint_min=25 / scenecut=40(pre) / rc=2pass / bitrate=4681 / ratetol=1.0 / qcomp=0.60 / qpmin=10 / qpmax=51 / qpstep=4 / cplxblur=20.0 / qblur=0.5 / ip_ratio=1.40 / pb_ratio=1.30 / aq=1:1.00
Language : English

Audio
ID : 2
Format : AC-3
Format/Info : Audio Coding 3
Codec ID : A_AC3
Duration : 1h 57mn
Bit rate mode : Constant
Bit rate : 640 Kbps
Channel(s) : 6 channels
Channel positions : Front: L C R, Surround: L R, LFE
Sampling rate : 48.0 KHz
Stream size : 538 MiB (12%)
Title : 5.1 DD
Language : French

Text
ID : 3
Format : UTF-8
Codec ID : S_TEXT/UTF8
Codec ID/Info : UTF-8 Plain Text
Title : forced
Language : French

yanolo

Messages : 1
Date d'inscription : 03/02/2010

Revenir en haut Aller en bas

Re: fichier MKV

Message  titivole2 le Mer 3 Fév 2010 - 19:42

Bonjour,

Je n'ai essayé qu'un fichier mkv que j'ai dl et il est lu sans pb.

titivole2

Messages : 32
Date d'inscription : 13/12/2009

Revenir en haut Aller en bas

Re: fichier MKV

Message  Jacky67 le Mar 30 Mar 2010 - 1:39

Personnellement, je n'ai aucun problème pour lire ce fichier par DLNA Ethrnet depuis le disque dur de mon PC.

Jacky67

Messages : 420
Date d'inscription : 11/02/2010
Age : 26

Revenir en haut Aller en bas

Re: fichier MKV

Message  stephane_lyon le Dim 11 Avr 2010 - 19:24

Il faudrait savoir le logiciel qu'il utilise comme serveur DLNA...

stephane_lyon

Messages : 131
Date d'inscription : 31/01/2010

Revenir en haut Aller en bas

Re: fichier MKV

Message  JNOUNE le Mar 20 Avr 2010 - 22:17

Je pense qu'il doit yavoir des pb de compatibilité avec certaines version. J'ai testé cela qui fonctionne.

Format : Matroska
Taille du fichier : 7.96 Gio
Durée : 2h 37mn
Débit : 7219 Kbps
Date d'encodage : UTC 2010-03-08 20:19:19
Application utilisée : mkvmerge v3.2.0 ('Beginnings') built on Feb 12 2010 16:46:17
Bibliothèque utilisée : libebml v0.7.9 + libmatroska v0.8.1

Video #0
Codec : AVC
Codec/Famille : AVC
Codec/Info : Advanced Video Codec
Profile du codec : High@L4.1
Paramètres du codec, CABAC : Yes
Durée : 2h 37mn
Débit : 5386 Kbps
Largeur : 1920 pixels
Hauteur : 1080 pixels
Format à l'écran : 16/9
Images par seconde : 23.976 Im/s
Norme : NTSC
Chrominance : 4:2:0
Entrlacement : Progressif

Audio #0
Codec : DTS
Durée : 2h 37mn
Débit : 1536 Kbps
Canaux : 6 canaux
Echantillonnage : 48.0 KHz
Résolution : 24 bits
Langue : Français

Texte #0
Codec : UTF-8
Codec/Info : UTF-8 Plain Text
Titre : force
Langue : Français

Texte #1
Codec : UTF-8
Codec/Info : UTF-8 Plain Text
Langue : Français

JNOUNE

Messages : 31
Date d'inscription : 28/01/2010
Localisation : Alsace

Revenir en haut Aller en bas

Re: fichier MKV

Message  Contenu sponsorisé Aujourd'hui à 9:50


Contenu sponsorisé


Revenir en haut Aller en bas

Voir le sujet précédent Voir le sujet suivant Revenir en haut

- Sujets similaires

 
Permission de ce forum:
Vous ne pouvez pas répondre aux sujets dans ce forum